Details for this torrent 

Jenna Jameson Feature Collection 1993-2005 DVDrip
Type:
Porn > Other
Files:
318
Size:
60.41 GiB (64860028343 Bytes)
Tag(s):
jenna jenna jameson feature collection 1993 2005 dvdrip
Uploaded:
2016-01-17 03:03:04 GMT
By:
roflcopter2110 Trusted
Seeders:
12
Leechers:
16
Comments
2  

Info Hash:
A1339420D50294032483B8409A417E51F7F5BF60




(Problems with magnets links are fixed by upgrading your torrent client!)
 http://lookpic.com/O/i2/1160/X4Cd7LhU.jpeg

Format : AVI
Format/Info : Audio Video Interleave
File size : 701 MiB
Duration : 1h 5mn
Overall bit rate mode : Variable
Overall bit rate : 1 487 Kbps
Writing application : VirtualDubMod 1.5.10.2 (build 2540/release)
Writing library : VirtualDubMod build 2540/release

Video
ID : 0
Format : MPEG-4 Visual
Format profile : Advanced Simple@L5
Format settings, BVOP : 2
Format settings, QPel : No
Format settings, GMC : No warppoints
Format settings, Matrix : Default (H.263)
Codec ID : XVID
Codec ID/Hint : XviD
Duration : 1h 5mn
Bit rate : 1 311 Kbps
Width : 576 pixels
Height : 320 pixels
Display aspect ratio : 16:9
Frame rate : 29.970 fps
Color space : YUV
Chroma subsampling : 4:2:0
Bit depth : 8 bits
Scan type : Progressive
Compression mode : Lossy
Bits/(Pixel*Frame) : 0.237
Stream size : 618 MiB (88%)
Writing library : XviD 1.2.1 (UTC 2008-12-04)

Audio
ID : 1
Format : MPEG Audio
Format version : Version 1
Format profile : Layer 3
Mode : Joint stereo
Mode extension : MS Stereo
Codec ID : 55
Codec ID/Hint : MP3
Duration : 1h 5mn
Bit rate mode : Variable
Bit rate : 162 Kbps
Minimum bit rate : 32.0 Kbps
Channel(s) : 2 channels
Sampling rate : 48.0 KHz
Compression mode : Lossy
Stream size : 76.5 MiB (11%)
Alignment : Aligned on interleaves
Interleave, duration : 24 ms (0.72 video frame)
Interleave, preload duration : 319 ms
Writing library : LAME3.97
 
http://lookpic.com/O/i2/661/lueHj1MM.jpeg 
http://lookpic.com/O/i2/1398/WwtaP3or.jpeg

Comments

I just want to see the hot lesbian scenes. Can someone please name the scenes that show only girl on girl?
3 links, all "not found" now.
Download music, movies, games, software! The Pirate Bay - The galaxy's most resilient BitTorrent site

The Pirate Bay

Preferences Languages

How do I download?