Details for this torrent 

Amateur Anal Sex with an Arab Teen
Type:
Porn > Other
Files:
3
Size:
113.77 MiB (119297068 Bytes)
Spoken language(s):
English
Uploaded:
2015-07-30 21:21:29 GMT
By:
pBtu6RHs Trusted
Seeders:
66
Leechers:
3
Comments
0  

Info Hash:
2412B12DAAAA944898862180CF3355534E0D31FA




(Problems with magnets links are fixed by upgrading your torrent client!)
General
Complete name               : Amtur_Anl_Sx_with_an_Arb_Tn.avi
Format                      : AVI
Format/Info                 : Audio Video Interleave
File size                   : 114 MiB
Duration                    : 57mn 27s
Overall bit rate            : 276 Kbps

Video
ID                          : 0
Format                      : MPEG-4 Visual
Format profile              : Advanced Simple@L5
Format settings, BVOP       : 2
Format settings, QPel       : No
Format settings, GMC        : No warppoints
Format settings, Matrix     : Default (H.263)
Muxing mode                 : Packed bitstream
Codec ID                    : XVID
Codec ID/Hint               : XviD
Duration                    : 57mn 27s
Bit rate                    : 235 Kbps
Width                       : 320 pixels
Height                      : 240 pixels
Display aspect ratio        : 4:3
Frame rate                  : 29.970 fps
Color space                 : YUV
Chroma subsampling          : 4:2:0
Bit depth                   : 8 bits
Scan type                   : Progressive
Compression mode            : Lossy
Bits/(Pixel*Frame)          : 0.102
Stream size                 : 96.6 MiB (85%)
Writing library             : XviD 64

Audio
ID                          : 1
Format                      : MPEG Audio
Format version              : Version 2
Format profile              : Layer 2
Codec ID                    : 50
Duration                    : 57mn 27s
Bit rate mode               : Constant
Bit rate                    : 32.0 Kbps
Channel(s)                  : 1 channel
Sampling rate               : 22.05 KHz
Compression mode            : Lossy
Stream size                 : 13.1 MiB (12%)
Alignment                   : Aligned on interleaves
Interleave, duration        : 53 ms (1.58 video frames)

Download music, movies, games, software! The Pirate Bay - The galaxy's most resilient BitTorrent site

The Pirate Bay

Preferences Languages

How do I download?