Details for this torrent 

When Animals Dream
Type:
Video > Movies
Files:
1
Size:
799.68 MiB (838521251 Bytes)
Info:
IMDB
Spoken language(s):
English
Texted language(s):
English
Tag(s):
Drama Horror Mystery
Uploaded:
2017-06-20 00:23:01 GMT
By:
dascuba Trusted
Seeders:
0
Leechers:
0
Comments
0  

Info Hash:
424B4E7685AEF816070EADD10078469B9A4E12F2




(Problems with magnets links are fixed by upgrading your torrent client!)
When Animals Dream (2014)
Nr dyrene drømmer (original title)
R | 1h 24min | Drama, Horror, Mystery | 28 August 2015 (USA)

General
Complete name                            : When Animals DreamWHEN_ANIMALS_DREAM_Title1.mp4
Format                                   : MPEG-4
Format profile                           : Base Media
Codec ID                                 : isom (isom/iso2/avc1/mp41)
File size                                : 800 MiB
Duration                                 : 1 h 24 min
Overall bit rate                         : 1 322 kb/s
Movie name                               : WHEN_ANIMALS_DREAM
Writing application                      : Lavf54.6.100

Video
ID                                       : 1
Format                                   : AVC
Format/Info                              : Advanced Video Codec
Format profile                           : [email protected]
Format settings, CABAC                   : No
Format settings, ReFrames                : 6 frames
Codec ID                                 : avc1
Codec ID/Info                            : Advanced Video Coding
Duration                                 : 1 h 24 min
Bit rate                                 : 1 187 kb/s
Width                                    : 720 pixels
Height                                   : 404 pixels
Display aspect ratio                     : 16:9
Frame rate mode                          : Constant
Frame rate                               : 29.970 (30000/1001) FPS
Color space                              : YUV
Chroma subsampling                       : 4:2:0
Bit depth                                : 8 bits
Scan type                                : Progressive
Bits/(Pixel*Frame)                       : 0.136
Stream size                              : 718 MiB (90%)

Audio
ID                                       : 2
Format                                   : AAC
Format/Info                              : Advanced Audio Codec
Format profile                           : LC
Codec ID                                 : 40
Duration                                 : 1 h 24 min
Bit rate mode                            : Constant
Bit rate                                 : 128 kb/s
Channel(s)                               : 2 channels
Channel positions                        : Front: L R
Sampling rate                            : 44.1 kHz
Frame rate                               : 43.066 FPS (1024 spf)
Compression mode                         : Lossy
Stream size                              : 77.4 MiB (10%)
Default                                  : Yes
Alternate group                          : 1